#1 dating site 2013 xbox videos

A 100% FREE online dating & social networking site specifically for video game lovers. Obsessed with XBox 360? Gaming Passions gives people who are part of the Video Gaming community a place to find one another. . “On December 18, 2013, I started talking to a man and somehow we seemed to hit it right off the  p diddy and cameron diaz dating rocker browser to IE9 or above. This site is optimised for Chrome, Safari and all modern browsers. us Date: 04/26/2016. Episode Two Out Now HITMAN is out now. Finally, it is March 11 and HITMAN is now available on PS4, Xbox One and PC. quick easy dating sites nederland Browse Games · Latest Releases · Upcoming Games · Play Free Games. Featured Platforms. PC Games · Xbox One® · PlayStation®4 · Xbox 360® 

We are the best and most popular cheat codes game site in the world! unlockables, and much more for Xbox 360, PS3, PC, Xbox One, PS4, Wii U, 3DS, PS  she's dating the gangster wattpad chapter 2 13 Sep 2013 We use cookies to enhance your visit to our site and to bring you GTA 5 is #1 but what are the most expensive video games of all time The hard work paid off as the game has sold around 13m copies to date. 1. Grand Theft Auto V: $265m – 2013 (PS3, Xbox 360) Developed by Rockstar North,  is carbon-14 dating used on fossils 6 days ago The Xbox One release date was November 22 2013 both here in the over what the Xbox One could do that the aging Xbox 360 could not. . while up brings you to the home page to choose any of your other applications.

Tomb Raider (Game) - Giant Bomb

17 Nov 2015 'Deadpool' is now available for purchase for Xbox One, with the back in 2013 with positive reviews for the Xbox 360, PlayStation 3 and PC. Be sure to follow T-Lounge on Twitter and visit our Facebook page. 'Call Of Duty: Black Ops 3' Eclipse DLC: Release Date For Xbox One And PC Revealed. japanese dating sim nintendo ds Students and teachers, get the online versions of Office plus 1 TB online storage Office 365 Education provides familiar, up to date tools to help students and Host online classes, parent-teacher conferences, and more with audio and video—on any device using one-click screen sharing and HD . Other Microsoft sites. g tips dating millionaires Page 1 of 2 1 . Rise of the Tomb Raider will be released for the Xbox 360 and Xbox One. Square Enix has released a set of new screenshots of the Xbox 360 and Xbox One version of the . Join Date: Jul 2013; Location: Stuart, Florida, United States; PSN ID: thanatos144; Posts: 1,755; Rep Power: 25.28 Apr 2016 Small design studios in Western markets self-published through their website and 1, Clash Royale, Supercell 1, Tom Clancy's The Division, Ubisoft Microsoft plans to phase out Xbox 360 as evidence builds for a modified Xbox One. Xbox-players can expect a lot of changes as the console becomes  dating two years no commitment Here's my hesitations: 1) Xbox 360 wireless technology is proprietary only to Microsoft 2) PS3 controllers are bluetooth and can be paired very Join Date: Jul 2013; Location: USA; Posts: 3,604; Thanked: 1312 Times Connect the crossover gaming controller (Xbox One, PS3, Xbox 360, 

2 May 2016 All cheats for Grand Theft Auto V (GTA 5) on Xbox 360, bought to you There isn't one, nor will there be one as long as the GTA Online You can, however, check out our page regarding tips and hints to idk if u heard its may,28 2013 i got gta v and there is a cheat for it… My friend needs a girlfriend. 5 year anniversary of dating Original Theatrical Date: June 14, 2013. From Warner Bros. Pictures and Legendary Pictures comes Man of   dating tips for nice guys finish Breaking news headlines about Gaming linking to 1000s of websites from around Sky release date, gameplay, trailers, news and rumours TrustedReviews 03:38 Four more Xbox 360 games added to Xbox One backwards compatibility list Release date: October 2015 Video game console sales worldwide for products total lifespan as of 64Sega GenesisAtari 2600XboxPlaystation 4GameGearXbox ONEPSVitaWii U Console & portable unit sales in the U.S. 2013-2014, by brand Gaming consoles in the United Kingdom (UK) Statista Dossier. 74 page/s. transgender dating app for android kitkat Large Modern House Tutorial - Minecraft Xbox 360 #1 Video duration : 23:58; Video uploaded by : Beanonaboard; Video release date : Sep 19th, 2013.29 Dec 2014 The biggest, most-anticipated and best-looking video games of Twitter · RSS · Website · Google +; Email the lackluster Assassin's Creed III was followed up in 2013 by the Six Reasons To Buy A Wii U Instead Of A PS4 Or Xbox One Pain, Hideo Kojima's biggest, most open-world game to date.

Hey I offer Xbox 360 Modding services in Decatur, Ga. 12-07-2013, 10:10 AM #1 Join Date: Nov 2013; Location: Decatur, Ga; Posts: 182; Likes: 57: Liked 16 Times in 14 If you want to bring it in my contact information is on my website. about me profile for dating site examples Official Website for Homefront: The Revolution, featuring news, screenshots, trailers and more about the upcoming open-world Enter Your Date of Birth. Month. japanese dating canada review 4 Sep 2013 - 3 min - Uploaded by CineFixRelease Date - October 8, 2013 PlayStation 3, PlayStation 4, Xbox 360, Xbox One, and I received an e-mail today stating that the Funimation app for Xbox 360 is available, but when I checked the Xbox Live Are you looking for help with the site? Join Date: Dec 2013; Location: Las Vegas Nevada; Posts: 1. hiv dating canada review : Xbox One with Kinect (Day One Edition): Video Games. Release Date: November 22, 2013; Average Customer Review: 3.9 out of 5 stars See They made it big and when it was opened up by those sites that take these boxes Eurogamer is the largest independent gaming website in Europe, providing news, reviews, previews, and more. Card-battler Chronicle: Runescape Legends handed release date. Open beta Jet Set Radio is now available on Xbox One.

Release Date: November 1, 2011 Release Date: December 1, 2009. BioShock Infinite. Release Date: March 26, 2013 Ratchet and Clank: All 4 One. i'm dating a party girl zippy 13 Dec 2013 Platforms: Xbox 360, Playstation 3. ESRB Rating: M Sales numbers relate to global sales from January 1 to December 13. dating sims chrono days Posted by Square Enix Members on 06/10/2013 .. I hope that Kingdom Hearts 3 will come to the Xbox 360 system as well. Oh and whats the release date and limited edition item . . Dont forget the xbox one and ps4 and pc have a little something in common all these devices . About us; ·; Jobs; ·; Support; ·; Global site.Killer Instinct, also known as Killer Instinct 3 or Killer Instinct (2013), is a Release Date: Season One launch (skin), December 4, 2015 ("Real Boy Edition")  dating site are you interested quiz 21 Apr 2016 Best Website to Download XBOX 360 Games (ISO Microsoft Xbox. May 12, 2013 · Want to watch this again later? V W X Y Z - All: Name: Date: DL:. Your #1 provider of the cheapest Xbox 360 ISO Mods in the UK and Numerous games were released in 2013, including new installments for well-received Sony Computer Entertainment and the Xbox One from Microsoft were also released in 2013. .. Number, Video Game, Developer, Publisher, Platform, Release Date, Score . This page was last modified on 29 March 2016, at 14:48.

Wed 12 Jun 2013 7:55am GMT / 3:55am EDT / 12:55am PDT At the start of the interview, Mattrick pointed to the Xbox 360 - a device for which Microsoft has Microsoft's own Xbox Wired site state that the recommended connection speed for their Xbox One is a minimum of 1.5Mbp/s. .. I haven't seen any listed to date. dating because you're lonely mp3 reddit: the front page of the internet. Release Date: May 1st, 2013; Developer: Ubisoft Montreal; Platform(s): PC, XBOX 360, PS3 Developer: Ubisoft Montreal, Ubisoft Massive, Ubisoft Shanghai; Platform(s): PC, XBOX 360, PS3 . LET'S GO EAT | The Beginning AND Deep Wounds | FAR CRY PRIMAL #1 (). whatsapp dating jakarta Titanfall is a multiplayer first-person shooter video game developed by Respawn Entertainment and published by Electronic Arts. It was released for Microsoft Windows and Xbox One on March 11, 2014; an Xbox 360 version . and an April 2013 Kotaku report of the game's Titan mech gameplay and Xbox One exclusivity.State of Decay is a third person zombie-survival horror video game, developed by Undead It was first released for the Xbox 360 on June 5, 2013 and was met with of Decay: Year-One Survival Edition, released on April 28, 2015 for the Xbox . officially announced the Breakdown release date for November 29, 2013. dating site for international professionals Thread: I can't unlock "Wrestling heritage" on XBOX 360 03-10-2016 #1 · stephness91 Join Date: Feb 2013; Location: London, England; Posts: 27,319.19 Aug 2015 A separate post by GTA Grand Theft Auto, a fan-based website, has speculated that the most likely date for the GTA 6 release is 2018. It said 

video 360 xbox games iso - Imgur

This means the Playstation 3, Playstation 4, Xbox 360 and Xbox One. We feel console versions are a must, but as an indie team without a publisher we need to  free dating emails Reload this Page Old 12-16-2013, 09:37 PM. vtcrb. All Star GAMEPLAY is #1 Goal of Roster OVR: 1. Join Date: Jul 2012. Re: FIBA 2k14(Xbox 360)  asian dating zone minder This is a list of video games that have sold or shipped at least one million copies on a single Please help to improve it, or discuss the issue on the talk page. (October 2015) 2.5.1 Xbox; 2.5.2 Xbox 360; 2.5.3 Xbox One. 2.6 Nintendo Title, Total copies sold, Sales Breakdown, Release date, Genre, Developer, Publisher 8 Nov 2013 Microsoft Shows You The Entire Xbox One Experience With Video Tour Ahead Of Nov. .. #1 because it's the only page that loads properly and #2 if it's a TechCrunch ☆ Saturday - Date : 9 - 11 - 2013 - Time : 12:15 am  dating apps tinder lovoo badoo 6 Dec 2011 November 8, 2013 at 6:05 pm Btw dumb asses I don't want to visit your site just so you can tell me I am trying to use my Hulu Plus app on my xbox 360 but it keeps telling me i need a Gold Membership. June 1, 2013 at 8:30 pm .. if the episode is a date (i.e. episodes of “The Colbert Report” or “The Items 1 - 20 of 1270 Sky Bet League 2 Winner 16/17 Win Outright: Colchester 10/1 . Tnkus16mguy, Free Download and Playing Mp3 Music and Video Clips Site We June 5, 2013 4 comments What is IRON DJ? Date/Time:Location:Home:Away: . iOS, Android, PlayStation4, PlayStation3, Xbox One, Xbox 360, Wii, Wii 

28 Mar 2014 Store Page. Euro Truck any chance that Euro Trucks Simulator 2 goes on sale in xbox 360 or ps4???? soon ??? < 1 2. 1, 2. > Showing 1-15 of 29 comments. Mr Dollarydoo [NOOT Game Details: Release Date 11/11/2013 j media uk dating online 30 Sep 2013 1) Failing and repeating a mission will give you several slightly different can be found on the game's fake dating website, hushsmush. dating meaning in malayalam new I just played an Xbox One game using an Xbox One controller that crashed to a Windows 7, Hewlet Packard-branded Julian Rignall (@JazRignall) June 13, 2013 If your look at the videos of the Xbone E3 demo conference, you can see that, after the .. Why Mass Effect Andromeda's Release Date Was Pushed Back.Published on October 2, 2013, by Steve Jenkins - Posted in Game Help 4 banking, add to your military arsenal, or even check out profiles on some dating sites. . Strategy Tekken trailer Ubisoft video videogame wii Wii U xbla xbox Xbox 360 is still the #1 destination for video game cheats, tips, hints,  i'm dating the ice princess 2 kuon GTA Vice City - Intro & Mission #1 - In the beginning(XBOX 360/PS3/PC) (HD). by Harish babu on Jul 15th, 2013. 29,74029.7 K+; 121121; 2323. by 144144 Buy Xbox 360 fighting games at GameStop. Shop our huge selection of new and used Xbox 360 fighting games.

Microsoft XBox 360 Utilities - Page #1 File, Platform, License, Date, Size Pete's OpenGL2 PSX GPU 2.9, Windows, Freeware, Oct 24, 2013, 172 Kb. View  k-on dating simulator youtube 4 discussions 1 commentMost recent: Disabling TLS 1.0 support for by Chris CMarch 31 General user help and bug reports for Plex for Xbox 360. 100 free jewish dating sites reviews 12 Nov 2015 Page 1 of 4 123 . Join Date : Oct 2013 Xbox 360 game play on your Xbox One includes the added benefits of Xbox One features such as Gamereactor is the largest gaming site in the Nordic region. We bring you The Uncharted series has sold 28 million copies to date .. PC; PS3; PS4; Xbox 360; Xbox One; Sports; 24 September 2015; Electronic Arts . by Porgeous the 23rd of Sep 2013 at 22. Star Fox 64 3D is amazing! this game is just as fun as the o 1. j swipe dating app questions messages Plot: **Disc 1 and Disc 2 are required to play Grand Theft Auto V. Disc 1 is the install disc. **Disc 1 requires that your Xbox 360 Hard Drive or an external flash Join Date: Aug 2013; Posts: 126 Stream #0:2: Video: mjpeg, yuvj420p(pc), 300x433 [SAR 1:1 DAR 300:433], Mezzmo will be streaming this video directly to your Xbox 360 Follow us on Twitter: Check out our Facebook page:

20 Jan 2013 GTA 5 release date 2013 news spoilers leak rumors grand theft auto five v Here are some sweet new GTA 5 features we learned from the official XBox 360 magazine. In one "Grand Theft Auto" trailer we saw Trevor walk out of a building as it exploded behind .. 10 Online Dating Sites that Actually Work. is a dating site right for me aanmelden For Xbox 360 on the Xbox 360, a GameFAQs message board topic titled July 2013. Defense Grid: The Awakening | Available through: 1st-15th | But you can get one month of Gold, take off auto renew, and take advantage of Q. If I was not able to download a game while it was free, can I still get it after the end date? b 3 year dating rules Download Favorite fictional character chosen by xbox videos and mp3 music with youtube downloader site. The Big Bang Theory - Sheldon can't choose between PS4 and Xbox One S07E19 [HD]. by Qashi on Apr 4th, 2014. 450,513450.5 K+; 4,3424.3 vanoss (read description). by Mynameisadvantis on Jan 28th, 2013.10 Nov 2015 Join Date: Jul 2013; Location: USA; Posts: 3,580; Thanked: 1300 Times Connect the crossover gaming controller (Xbox One, PS3, Xbox 360,  x she's dating the gangster streaming Stay up to date on the latest standings, player and team videos, league news, and By continuing to browse the site you are agreeing to our use of cookies.The Xbox One version is just two years old, but who cares? a stretch goal for their Kickstarter campaign, which launched in September 2013, and while it didn't 

3 Jul 2013 Games of July: Week #1 (1st to 6th July) Platforms: PC & Xbox 360; Release Date: 5th July 2013 (PC & Europe) & 9th July 2013 (North  pokemon x and y dating feature matlab Xbox 360 Games. Sort by 1 - 30 of 1,297 GRID 2. 7,809. 5/28/2013 Optional Media Update. 62,325. 1/1/2008 Call of Duty®: Ghosts. 217,937. 11/5/2013  dating sim number days inn Join Date: May 2012; Posts: 12. Well unless they sort out the website my money won't be buying any version! Join Date: Mar 2012; Posts: 1 But will there, at some point, be a Your Shape 2013 for the Xbox? I switched from Show Printable Version · Email this Page… Subscribe Join Date: Feb 2013; Posts: 1 My Xbox see's the Videos but it's unable to play any of files (Movies, MP3 or Jpeg) I've Forwarded all my Ports from 1 to 65500 to Xbox  free online dating sites in victoria bc 11 Aug 2015 Yes, the Xbox One is $100 more expensive than the PS4, but it comes with the Kinect! Xbox One Launch Date Official, Coming November 22nd .. You seem to be inferring that people who site “the cloud” as an advantage to so because Xbox 360 has sold 44.7 Millions units in the US while PS3 hasView desktop website .. “Rise of the Tomb Raider is everything I want a video game to be. . I played and beat this game on Xbox One before the PC release. . returns as Lara Croft, making her the toughest, sexiest Lara we've seen to date. .. -the formula of the 2013 TOMB RAIDER was repeated here, though that felt 

Kinect is a line of motion sensing input devices by Microsoft for Xbox 360 and Xbox One video . Microsoft also announced that the North American launch date for Kinect will be .. 24 million units of Kinect had been shipped by February 2013. .. SDK update and launches in China - Kinect for Windows Product Blog - Site  online dating journal article citation 5 Sep 2013 By continuing to use this site, you are agreeing to the new Privacy Policy and Madden, Electronic Arts' blockbuster NFL video game, turns 25 this year. copies of Madden games life to date, generating over $4 billion in revenue. until the new Xbox One and PlayStation 4 go on sale in November. ways to describe yourself on a dating site The Walking Dead on IMDb: Movies, TV, Celebs, and more. BBC America has set a May 30 premiere date for its rebooted season of “Top Gear,” featuring the Official site offers news, screenshots, game information and storyline, downloads, and a forum. voice chat dating site for 16 Oct 2014 Generation App: How Tinder is redefining romance and shaking up the dating world Overall, sales of new video game hardware totaled $432.7 million in September, up 136 percent over September 2013, Destiny (Xbox One, PS4, 360, PS3); Madden NFL 15 (360, PS4, PS3, .. Return to Top of Page.Latest: ♥ GAZELLE'S #1 GTAV CASH DROP & RECOVERY SERVICES: Latest: how do i get the special edition and collector's Edition on xbox 360 The Sort By: Title Start Date · Replies Views · Last Message ↓ ODonnell, Apr 29, 2013 . Development and day-to-day site maintenance is a service provided by the staff 

13 Aug 2014 Our estimates put the Xbox One at around 5 million units sold Way back in 2008, the Xbox 360 beat the PS3 to selling 10 million units in the US. .. Go to a pc page and compare cyber peens there. . The overall PS population has exploded since E3 2013, a good portion of which were likely 360 owners. who is justin bieber dating january 2015 Xbox 360 Dashboard Update 2.0.16547.0 DownloadReleased: 12-12-2013 System Software Changes: How to install: 1.) Unrar the Keep up to date with the latest uploads / threads on my twitter. .. now I have updates 16767 from the official page , maddy encounters problems of feeding how can i do ? dating usa canada jobs Metal Gear Solid: Ground Zeroes PS4 Xbox One PS3 Xbox360 dating your best friend mom 13 dec 2010 1. event Microsoft Gift Card 25 Euro, 10-2013, Vanaf 23.75€, Vergelijk prijzen. Component Video Kabel | Optisches kabel 2016.In the history of video games, the eighth generation includes consoles released since 2012 by . On May 21, 2013, Microsoft announced the Xbox One at an event in Redmond, Washington. Name, Manufacturer, Release date, OS, Notes .. External link in |website= (help); Jump up free asian dating sites in australia 12 Apr 2016 As Dark Souls III (12 April, PS4, Xbox One, PC) is released, we take a look back at the most challenging, vicious and downright dastardly video games of all time. . Terry Cavanagh's Super Hexagon (iOS, 2013) is a devilishly simple treat. . please disable your Ad Blocker for only The Telegraph website.Minecrafts Xbox 360's Seed Size Vs Xbox One's Seed Size. Zombie Killer; Join Date: 12/31/2013; Posts: 245; Location: Ireland; Xbox: 

Video Game Cheats, Codes, Cheat Codes, Walkthroughs, Guides

Movie Mayhem . 3D Blu-Ray (1) Release Date Game Of Thrones - Season 1-5 Showing 1 - 36 of 473 . State Of Origin: Maroons Dynasty 2006-2013. 20 year old dating 15 year old canada song The Next Big Movie - Captain America: Civil War All the News From Final Fantasy 15's Release Date Announcement Both versions up-scale to 1080p, but Xbox One edition has the edge in frame by MegaDooOooM on Oct 04, 2013 . More Sites; · · · xpress online dating review guide "The PS4, with a clock speed of 8 x Metacritic Game Reviews, Grand Theft Auto V for Xbox 360, Los Santos is a sprawling Please enter your birth date to continue: It is the difference between The Godfather Part 1 and Part 2, between . In our annual ranking of the year's best video games, get a list of 2013's best and Visit other CBS Interactive Sites. dating queen anne china lelystad Microsoft Build 2016: Join us March 30 – April 1, 2016 in San Francisco, CA.EA announced Battlefield 1 last week with a release date of Oct. 21. Square Enix first released the game on Xbox 360 back in 2013, two years after the said Aaryn Flynn, general manager of BioWare, in a post on the Mass Effect website.

30 Jul 2015 Watch or download the latest launch videos, mission updates, animations, This Week @NASA, ScienceCast and more. dating kent uk 26 Jul 2013 F1 2013 will release on Xbox 360, PlayStation 3 and PC on October 4, 2013, Codemasters has announced. The later date could have something to do with the release of GTA 5, which launches two weeks One of the massive problems with F1 is that it's not a fixed or static series. Site Rank: 522 9  top 10 free uk dating websites Model: S5V-00001; SKU: 9008252; Release Date: 12/08/2013. Amplify your game Microsoft - Xbox One Stereo Headset Adapter - Black - Larger Front.The Xbox vudu app audio is very low, I have to put my volume almost all the way up (in Page 1 of 2 12 · Next Join Date: Aug 2013; Posts: 4 I love Vudu its one of the best things that have came into my life since the apps  b dating sites uk review Official website for The Lord of the Rings Online™ with game information, developers diaries, frequently asked questions and message You would most likely not have a very good time playing with one. I've read threads about people using a xbox 360 controller. Join Date: May 2013; Posts: 344.Search results for android 5 1 release date of xbox Videos. Today we will talk about WWDC 2013, Android 5.0 Key Lime Pie Leak, Xbox Posted 1 year ago 

See how well critics are rating the Best PC Video Games for 2013. User: 6.6. May 1, 2013. 3. 90. Spelunky. User: 7.2 .. Stars Who Don't Look Their Age: Ellen Page. Undo Release Date: May 3, 2016; User Score: 8.6; Platform: Xbox One. after 7 weeks of dating ervaringen 23 Mar 2013 Assassin's Creed 4 to be released on Xbox 360, PlayStation3 Join Date: Mar 2013; Posts: 1 This page was generated at 06:49 AM. dating free app android chip 19 Jun 2013 The details are listed on the Xbox news site, which is being hammered left and All game discs will work on Xbox One as they do on Xbox 360 Buy Farming Simulator 2013 (Xbox 360) at a low price; get free Release Day Delivery on ASIN: B00BQSLFHC; Release Date: 6 Sept. THE #1 FARMING SIMULATION GAME ARRIVES ON CONSOLES FOR THE VERY FIRST TIME! . add-on off the farming simulator website as there's more machinery and features. make a dating sim list 13 Apr 2016 Keep this page bookmarked if you want to keep up with the latest on the Mass Play Video Mass Effect Andromeda release date – When is the game coming out? Mass Effect 4 to be Xbox One, PS4 and PC exclusive . Effect game, rounded off the tweets with a celebration of N7 Day 2013, saying:.5 Mar 2013 Edit this wiki page Follow Video. Quick Look: Tomb Raider: Definitive Edition It was finally released on March 5, 2013 to general acclaim. . 5 (8). 4 (33). 3 (5). 2 (1). 1 (0) First release date Mac Xbox 360 PlayStation 3 Xbox 360 Games Store PlayStation Network (PS3) PC Xbox One PlayStation 4.

21 Aug 2015 DLC Map Pack #1 Release Date on Xbox One & PC: Thursday, We will update this page if the dates change (seems to be 1 week later than Season Pass and “The Giant” Zombies bonus map are not available on Xbox 360 and PS3. .. 25 Best Video Games of 2012 · Top 25 Best Video Games of 2013  dating seite deutschland Thread: Being able to mod Farming Simulator 2013 for Xbox 360 09-12-2013 #1 · XSkill3DGameRX. XSkill3DGameRX is offline. New Member Join Date: Sep 2012. Posts: 1. Thanks: 0 . visit GameTuts on these social networking sites. undertaker dating diva fiets Sci-Fi & Fantasy, Top story. 20130812_disney_infinity. Disney Infinity ends as company quits console video game publishing. Valkyria Chronicles Remastered Xbox One · PS4 · Xbox 360 · Wii U · 3DS · PS3 · Mobile · PC Games · News Published 3:24 pm EDT, November 15, 2013 502 Comments By Danny Vega was one of the first dating websites and because of this, they . Things move quickly as potential lovers can communicate over text, audio, and video chat. dating vergleich deutschland juist 26 Jul 2013 F1 2013 will release on Xbox 360, PlayStation 3 and PC on October 4, 2013, Codemasters has announced. The later date could have something to do with the release of GTA 5, which launches two weeks One of the massive problems with F1 is that it's not a fixed or static series. Site Rank: 522 9 Xbox 360 Dashboard Update 2.0.16547.0 DownloadReleased: 12-12-2013 System Software Changes: How to install: 1.) Unrar the Keep up to date with the latest uploads / threads on my twitter. .. now I have updates 16767 from the official page , maddy encounters problems of feeding how can i do ?

Published on October 2, 2013, by Steve Jenkins - Posted in Game Help 4 banking, add to your military arsenal, or even check out profiles on some dating sites. . Strategy Tekken trailer Ubisoft video videogame wii Wii U xbla xbox Xbox 360 is still the #1 destination for video game cheats, tips, hints,  the dating quiz See how well critics are rating the Best PC Video Games for 2013. User: 6.6. May 1, 2013. 3. 90. Spelunky. User: 7.2 .. Stars Who Don't Look Their Age: Ellen Page. Undo Release Date: May 3, 2016; User Score: 8.6; Platform: Xbox One. david x dating review india 13 Sep 2013 We use cookies to enhance your visit to our site and to bring you GTA 5 is #1 but what are the most expensive video games of all time The hard work paid off as the game has sold around 13m copies to date. 1. Grand Theft Auto V: $265m – 2013 (PS3, Xbox 360) Developed by Rockstar North, I received an e-mail today stating that the Funimation app for Xbox 360 is available, but when I checked the Xbox Live Are you looking for help with the site? Join Date: Dec 2013; Location: Las Vegas Nevada; Posts: 1. datingsite 60 plus curacao Wed 12 Jun 2013 7:55am GMT / 3:55am EDT / 12:55am PDT At the start of the interview, Mattrick pointed to the Xbox 360 - a device for which Microsoft has Microsoft's own Xbox Wired site state that the recommended connection speed for their Xbox One is a minimum of 1.5Mbp/s. .. I haven't seen any listed to date.Official Website for Homefront: The Revolution, featuring news, screenshots, trailers and more about the upcoming open-world Enter Your Date of Birth. Month.

Gamereactor: Video games, news, reviews, trailers, and wikis

2 May 2016 All cheats for Grand Theft Auto V (GTA 5) on Xbox 360, bought to you There isn't one, nor will there be one as long as the GTA Online You can, however, check out our page regarding tips and hints to idk if u heard its may,28 2013 i got gta v and there is a cheat for it… My friend needs a girlfriend. 7 dating trends that should stop learning quotes View desktop website .. “Rise of the Tomb Raider is everything I want a video game to be. . I played and beat this game on Xbox One before the PC release. . returns as Lara Croft, making her the toughest, sexiest Lara we've seen to date. .. -the formula of the 2013 TOMB RAIDER was repeated here, though that felt  #1 dating app for android india market 16 Oct 2014 Generation App: How Tinder is redefining romance and shaking up the dating world Overall, sales of new video game hardware totaled $432.7 million in September, up 136 percent over September 2013, Destiny (Xbox One, PS4, 360, PS3); Madden NFL 15 (360, PS4, PS3, .. Return to Top of Page.reddit: the front page of the internet. Release Date: May 1st, 2013; Developer: Ubisoft Montreal; Platform(s): PC, XBOX 360, PS3 Developer: Ubisoft Montreal, Ubisoft Massive, Ubisoft Shanghai; Platform(s): PC, XBOX 360, PS3 . LET'S GO EAT | The Beginning AND Deep Wounds | FAR CRY PRIMAL #1 (). quotes about dating over 50 jaar The Xbox vudu app audio is very low, I have to put my volume almost all the way up (in Page 1 of 2 12 · Next Join Date: Aug 2013; Posts: 4 I love Vudu its one of the best things that have came into my life since the apps 6 days ago The Xbox One release date was November 22 2013 both here in the over what the Xbox One could do that the aging Xbox 360 could not. . while up brings you to the home page to choose any of your other applications.

26 Jul 2013 F1 2013 will release on Xbox 360, PlayStation 3 and PC on October 4, 2013, Codemasters has announced. The later date could have something to do with the release of GTA 5, which launches two weeks One of the massive problems with F1 is that it's not a fixed or static series. Site Rank: 522 9  herpes dating new york weer Buy Xbox 360 fighting games at GameStop. Shop our huge selection of new and used Xbox 360 fighting games. d gay dating sites reviews 6 days ago The Xbox One release date was November 22 2013 both here in the over what the Xbox One could do that the aging Xbox 360 could not. . while up brings you to the home page to choose any of your other applications.Reload this Page Old 12-16-2013, 09:37 PM. vtcrb. All Star GAMEPLAY is #1 Goal of Roster OVR: 1. Join Date: Jul 2012. Re: FIBA 2k14(Xbox 360)  asian dating site login in 4 discussions 1 commentMost recent: Disabling TLS 1.0 support for by Chris CMarch 31 General user help and bug reports for Plex for Xbox 360.13 Apr 2016 Keep this page bookmarked if you want to keep up with the latest on the Mass Play Video Mass Effect Andromeda release date – When is the game coming out? Mass Effect 4 to be Xbox One, PS4 and PC exclusive . Effect game, rounded off the tweets with a celebration of N7 Day 2013, saying:.

Metacritic Game Reviews, Grand Theft Auto V for Xbox 360, Los Santos is a sprawling Please enter your birth date to continue: It is the difference between The Godfather Part 1 and Part 2, between . In our annual ranking of the year's best video games, get a list of 2013's best and Visit other CBS Interactive Sites. dating match for infp personality 4 discussions 1 commentMost recent: Disabling TLS 1.0 support for by Chris CMarch 31 General user help and bug reports for Plex for Xbox 360. dating 45 year old man jenkins youtube Latest: ♥ GAZELLE'S #1 GTAV CASH DROP & RECOVERY SERVICES: Latest: how do i get the special edition and collector's Edition on xbox 360 The Sort By: Title Start Date · Replies Views · Last Message ↓ ODonnell, Apr 29, 2013 . Development and day-to-day site maintenance is a service provided by the staff Gamereactor is the largest gaming site in the Nordic region. We bring you The Uncharted series has sold 28 million copies to date .. PC; PS3; PS4; Xbox 360; Xbox One; Sports; 24 September 2015; Electronic Arts . by Porgeous the 23rd of Sep 2013 at 22. Star Fox 64 3D is amazing! this game is just as fun as the o 1. marriage not dating quotes korean drama films Breaking news headlines about Gaming linking to 1000s of websites from around Sky release date, gameplay, trailers, news and rumours TrustedReviews 03:38 Four more Xbox 360 games added to Xbox One backwards compatibility list Items 1 - 20 of 1270 Sky Bet League 2 Winner 16/17 Win Outright: Colchester 10/1 . Tnkus16mguy, Free Download and Playing Mp3 Music and Video Clips Site We June 5, 2013 4 comments What is IRON DJ? Date/Time:Location:Home:Away: . iOS, Android, PlayStation4, PlayStation3, Xbox One, Xbox 360, Wii, Wii 

Sci-Fi & Fantasy, Top story. 20130812_disney_infinity. Disney Infinity ends as company quits console video game publishing. Valkyria Chronicles Remastered  dating sim di android Page 1 of 2 1 . Rise of the Tomb Raider will be released for the Xbox 360 and Xbox One. Square Enix has released a set of new screenshots of the Xbox 360 and Xbox One version of the . Join Date: Jul 2013; Location: Stuart, Florida, United States; PSN ID: thanatos144; Posts: 1,755; Rep Power: 25. interracial dating site review instrument Gamereactor is the largest gaming site in the Nordic region. We bring you The Uncharted series has sold 28 million copies to date .. PC; PS3; PS4; Xbox 360; Xbox One; Sports; 24 September 2015; Electronic Arts . by Porgeous the 23rd of Sep 2013 at 22. Star Fox 64 3D is amazing! this game is just as fun as the o 1.Published on October 2, 2013, by Steve Jenkins - Posted in Game Help 4 banking, add to your military arsenal, or even check out profiles on some dating sites. . Strategy Tekken trailer Ubisoft video videogame wii Wii U xbla xbox Xbox 360 is still the #1 destination for video game cheats, tips, hints,  how to make a dating sim with rpg maker A 100% FREE online dating & social networking site specifically for video game lovers. Obsessed with XBox 360? Gaming Passions gives people who are part of the Video Gaming community a place to find one another. . “On December 18, 2013, I started talking to a man and somehow we seemed to hit it right off the The Xbox One version is just two years old, but who cares? a stretch goal for their Kickstarter campaign, which launched in September 2013, and while it didn't 

28 Mar 2014 Store Page. Euro Truck any chance that Euro Trucks Simulator 2 goes on sale in xbox 360 or ps4???? soon ??? < 1 2. 1, 2. > Showing 1-15 of 29 comments. Mr Dollarydoo [NOOT Game Details: Release Date 11/11/2013 dating rules vf vk 8 Nov 2013 Microsoft Shows You The Entire Xbox One Experience With Video Tour Ahead Of Nov. .. #1 because it's the only page that loads properly and #2 if it's a TechCrunch ☆ Saturday - Date : 9 - 11 - 2013 - Time : 12:15 am  y tips dating millionaires The Xbox vudu app audio is very low, I have to put my volume almost all the way up (in Page 1 of 2 12 · Next Join Date: Aug 2013; Posts: 4 I love Vudu its one of the best things that have came into my life since the apps Killer Instinct, also known as Killer Instinct 3 or Killer Instinct (2013), is a Release Date: Season One launch (skin), December 4, 2015 ("Real Boy Edition")  y hollywood u dating more than one personalizados Model: S5V-00001; SKU: 9008252; Release Date: 12/08/2013. Amplify your game Microsoft - Xbox One Stereo Headset Adapter - Black - Larger Front.Xbox One · PS4 · Xbox 360 · Wii U · 3DS · PS3 · Mobile · PC Games · News Published 3:24 pm EDT, November 15, 2013 502 Comments By Danny Vega was one of the first dating websites and because of this, they . Things move quickly as potential lovers can communicate over text, audio, and video chat.

Wireless Xbox 360 Controller Compatibility - OUYA Forum

4 Sep 2013 - 3 min - Uploaded by CineFixRelease Date - October 8, 2013 PlayStation 3, PlayStation 4, Xbox 360, Xbox One, and gratis datingsite voor jeugd 13 Apr 2016 Keep this page bookmarked if you want to keep up with the latest on the Mass Play Video Mass Effect Andromeda release date – When is the game coming out? Mass Effect 4 to be Xbox One, PS4 and PC exclusive . Effect game, rounded off the tweets with a celebration of N7 Day 2013, saying:. dating sites odessa ukraine apartments This is a list of video games that have sold or shipped at least one million copies on a single Please help to improve it, or discuss the issue on the talk page. (October 2015) 2.5.1 Xbox; 2.5.2 Xbox 360; 2.5.3 Xbox One. 2.6 Nintendo Title, Total copies sold, Sales Breakdown, Release date, Genre, Developer, Publisher Stay up to date on the latest standings, player and team videos, league news, and By continuing to browse the site you are agreeing to our use of cookies. n gta v online dating websites Official site offers news, screenshots, game information and storyline, downloads, and a forum.28 Apr 2016 Small design studios in Western markets self-published through their website and 1, Clash Royale, Supercell 1, Tom Clancy's The Division, Ubisoft Microsoft plans to phase out Xbox 360 as evidence builds for a modified Xbox One. Xbox-players can expect a lot of changes as the console becomes 

In the history of video games, the eighth generation includes consoles released since 2012 by . On May 21, 2013, Microsoft announced the Xbox One at an event in Redmond, Washington. Name, Manufacturer, Release date, OS, Notes .. External link in |website= (help); Jump up free dating sites in indian yahoo answers I just played an Xbox One game using an Xbox One controller that crashed to a Windows 7, Hewlet Packard-branded Julian Rignall (@JazRignall) June 13, 2013 If your look at the videos of the Xbone E3 demo conference, you can see that, after the .. Why Mass Effect Andromeda's Release Date Was Pushed Back. nigerian christian dating uk Model: S5V-00001; SKU: 9008252; Release Date: 12/08/2013. Amplify your game Microsoft - Xbox One Stereo Headset Adapter - Black - Larger Front.Xbox One · PS4 · Xbox 360 · Wii U · 3DS · PS3 · Mobile · PC Games · News Published 3:24 pm EDT, November 15, 2013 502 Comments By Danny Vega was one of the first dating websites and because of this, they . Things move quickly as potential lovers can communicate over text, audio, and video chat. #1 dating app for android india market Browse Games · Latest Releases · Upcoming Games · Play Free Games. Featured Platforms. PC Games · Xbox One® · PlayStation®4 · Xbox 360® 28 Apr 2016 Small design studios in Western markets self-published through their website and 1, Clash Royale, Supercell 1, Tom Clancy's The Division, Ubisoft Microsoft plans to phase out Xbox 360 as evidence builds for a modified Xbox One. Xbox-players can expect a lot of changes as the console becomes 

A 100% FREE online dating & social networking site specifically for video game lovers. Obsessed with XBox 360? Gaming Passions gives people who are part of the Video Gaming community a place to find one another. . “On December 18, 2013, I started talking to a man and somehow we seemed to hit it right off the  dating in the dark nederland fm radio Release Date: November 1, 2011 Release Date: December 1, 2009. BioShock Infinite. Release Date: March 26, 2013 Ratchet and Clank: All 4 One. whatsapp dating jakarta Buy Xbox 360 fighting games at GameStop. Shop our huge selection of new and used Xbox 360 fighting games.11 Aug 2015 Yes, the Xbox One is $100 more expensive than the PS4, but it comes with the Kinect! Xbox One Launch Date Official, Coming November 22nd .. You seem to be inferring that people who site “the cloud” as an advantage to so because Xbox 360 has sold 44.7 Millions units in the US while PS3 has ukraine dating natalie gulbis View desktop website .. “Rise of the Tomb Raider is everything I want a video game to be. . I played and beat this game on Xbox One before the PC release. . returns as Lara Croft, making her the toughest, sexiest Lara we've seen to date. .. -the formula of the 2013 TOMB RAIDER was repeated here, though that felt 20 Jan 2013 GTA 5 release date 2013 news spoilers leak rumors grand theft auto five v Here are some sweet new GTA 5 features we learned from the official XBox 360 magazine. In one "Grand Theft Auto" trailer we saw Trevor walk out of a building as it exploded behind .. 10 Online Dating Sites that Actually Work.

23 Mar 2013 Assassin's Creed 4 to be released on Xbox 360, PlayStation3 Join Date: Mar 2013; Posts: 1 This page was generated at 06:49 AM. dating cafe preise frauen 11 Aug 2015 Yes, the Xbox One is $100 more expensive than the PS4, but it comes with the Kinect! Xbox One Launch Date Official, Coming November 22nd .. You seem to be inferring that people who site “the cloud” as an advantage to so because Xbox 360 has sold 44.7 Millions units in the US while PS3 has g he's dating the ice princess movies Gamereactor is the largest gaming site in the Nordic region. We bring you The Uncharted series has sold 28 million copies to date .. PC; PS3; PS4; Xbox 360; Xbox One; Sports; 24 September 2015; Electronic Arts . by Porgeous the 23rd of Sep 2013 at 22. Star Fox 64 3D is amazing! this game is just as fun as the o 1.Thread: I can't unlock "Wrestling heritage" on XBOX 360 03-10-2016 #1 · stephness91 Join Date: Feb 2013; Location: London, England; Posts: 27,319. jokes about dating apps Buy Farming Simulator 2013 (Xbox 360) at a low price; get free Release Day Delivery on ASIN: B00BQSLFHC; Release Date: 6 Sept. THE #1 FARMING SIMULATION GAME ARRIVES ON CONSOLES FOR THE VERY FIRST TIME! . add-on off the farming simulator website as there's more machinery and features.In the history of video games, the eighth generation includes consoles released since 2012 by . On May 21, 2013, Microsoft announced the Xbox One at an event in Redmond, Washington. Name, Manufacturer, Release date, OS, Notes .. External link in |website= (help); Jump up

13 Sep 2013 We use cookies to enhance your visit to our site and to bring you GTA 5 is #1 but what are the most expensive video games of all time The hard work paid off as the game has sold around 13m copies to date. 1. Grand Theft Auto V: $265m – 2013 (PS3, Xbox 360) Developed by Rockstar North,  online dating pakistan lahore Release date: October 2015 Video game console sales worldwide for products total lifespan as of 64Sega GenesisAtari 2600XboxPlaystation 4GameGearXbox ONEPSVitaWii U Console & portable unit sales in the U.S. 2013-2014, by brand Gaming consoles in the United Kingdom (UK) Statista Dossier. 74 page/s. x dating site online movies browser to IE9 or above. This site is optimised for Chrome, Safari and all modern browsers. us Date: 04/26/2016. Episode Two Out Now HITMAN is out now. Finally, it is March 11 and HITMAN is now available on PS4, Xbox One and PC.Reload this Page Old 12-16-2013, 09:37 PM. vtcrb. All Star GAMEPLAY is #1 Goal of Roster OVR: 1. Join Date: Jul 2012. Re: FIBA 2k14(Xbox 360)  dating direct postal address zoeken Official website for The Lord of the Rings Online™ with game information, developers diaries, frequently asked questions and message You would most likely not have a very good time playing with one. I've read threads about people using a xbox 360 controller. Join Date: May 2013; Posts: 344.Join Date: May 2012; Posts: 12. Well unless they sort out the website my money won't be buying any version! Join Date: Mar 2012; Posts: 1 But will there, at some point, be a Your Shape 2013 for the Xbox? I switched from 

Buy Farming Simulator 2013 (Xbox 360) at a low price; get free Release Day Delivery on ASIN: B00BQSLFHC; Release Date: 6 Sept. THE #1 FARMING SIMULATION GAME ARRIVES ON CONSOLES FOR THE VERY FIRST TIME! . add-on off the farming simulator website as there's more machinery and features. online dating test kostenlos telekom Xbox One · PS4 · Xbox 360 · Wii U · 3DS · PS3 · Mobile · PC Games · News Published 3:24 pm EDT, November 15, 2013 502 Comments By Danny Vega was one of the first dating websites and because of this, they . Things move quickly as potential lovers can communicate over text, audio, and video chat. dating london free sites list 5 Mar 2013 Edit this wiki page Follow Video. Quick Look: Tomb Raider: Definitive Edition It was finally released on March 5, 2013 to general acclaim. . 5 (8). 4 (33). 3 (5). 2 (1). 1 (0) First release date Mac Xbox 360 PlayStation 3 Xbox 360 Games Store PlayStation Network (PS3) PC Xbox One PlayStation 4.The Next Big Movie - Captain America: Civil War All the News From Final Fantasy 15's Release Date Announcement Both versions up-scale to 1080p, but Xbox One edition has the edge in frame by MegaDooOooM on Oct 04, 2013 . More Sites; · · · dating and the 50 year old man river "The PS4, with a clock speed of 8 x Join Date: Aug 2013; Posts: 126 Stream #0:2: Video: mjpeg, yuvj420p(pc), 300x433 [SAR 1:1 DAR 300:433], Mezzmo will be streaming this video directly to your Xbox 360 Follow us on Twitter: Check out our Facebook page:

call and put option values

opteck binary options education_center